Telecharger Shrek le troisième[BLURAY 1080p] [DVDRiP] French

(TRUEFRENCH = Vraie voix française)

Qualité BLURAY 3D | MULTiLANGUES (Avec TRUEFRENCH)

Origine du film : Américain
Réalisateur : Chris Miller (LX)
Acteurs : Alain Chabat, Med Hondo, Boris Rehlinger
Genre : Animation, Comédie, Famille, Fantastique
Durée : 1h 33min
Date de sortie : 13 juin 2007
Année de production : 2007
Titre Original : Shrek the Third
Distribué par : Paramount Pictures France
Note presse : 3,2/5
Note spectateurs :

; »>3,1/5 (20457)

L’ogre Shrek n’avait pas quitté son marécage pestilentiel et épousé sa chère Fiona pour devenir roi. C’est pourtant ce qui risque de lui arriver après que son beau-père Harold clabote soudain sans crier gare. S’il n’arrive pas à dénicher illico un roi avec l’aide de ses fidèles compagnons, l’Âne et le Chat Potté, Shrek deviendra le prochain souverain du Royaume Fort Fort Lointain. Bonjour les ennuis !À moins qu’Artie, le cousin loser de Fiona, ne se laisse convaincre de monter sur le trône à sa place. Mais ce paumé a-t-il vraiment l’étoffe d’un roi ?

news-id-141863″ style= »display:inline; »>

Format : x264
Découpé avec : Winrar

Shrek.3.3D.2007.MULTI.1080p.BluRay.x264-JASS

(7580 Mo)

[Liens Interchangeables entre hébergeurs: 7x 1000 Mo + 1x 580 Mo]

Uptobox
Télécharger

Uplea
Télécharger

1fichier
Télécharger

Uploaded
Télécharger

Rapidgator
Télécharger

TurboBit
Télécharger

[Lien Premium]

Uptobox
Télécharger

Uplea
Télécharger

1fichier
Télécharger

Uploaded
Télécharger

TurboBit
Télécharger

NFO :

 Afficher / Masquer le texte bbc29229673fd87d8d683cfd6e2c9826″ class= »text_spoiler » style= »display:none; »>
General
Unique ID : 308620295833436075364497039044273621960 (0xE82E1B5F0D46447B4227D617B07DCBC8)
Complete name : G:Shrek les 4 films en 3D et 1080p et x265 et 720pShrek.3.3D.2007.MULTI.1080p.BluRay.x264-JASS-www.Zone-Telechargement.com.mkv
Format : Matroska
Format version : Version 2
File size : 7.58 GiB
Duration : 1h 32mn
Overall bit rate : 11.7 Mbps
Movie name : Shrek : le troisième
Encoded date : UTC 2011-05-21 01:19:14
Writing application : mkvmerge v3.2.0 ('Beginnings') built on Feb 12 2010 16:46:17
Writing library : libebml v0.7.9 + libmatroska v0.8.1
Attachment : Yes

Video
ID : 1
Format : AVC
Format/Info : Advanced Video Codec
Format profile : [email protected]
Format settings, CABAC : Yes
Format settings, ReFrames : 4 frames
Codec ID : V_MPEG4/ISO/AVC
Duration : 1h 32mn
Bit rate : 9 320 Kbps
Nominal bit rate : 10 000 Kbps
Width : 1 920 pixels
Height : 1 080 pixels
Display aspect ratio : 16:9
Frame rate mode : Constant
Frame rate : 23.976 fps
Color space : YUV
Chroma subsampling : 4:2:0
Bit depth : 8 bits
Scan type : Progressive
Bits/(Pixel*Frame) : 0.187
Stream size : 6.04 GiB (80%)
Writing library : x264 core 107 r1745 4785e8e
Encoding settings : cabac=1 / ref=3 / deblock=1:0:0 / analyse=0x3:0x113 / me=hex / subme=7 / psy=1 / psy_rd=1.00:0.00 / mixed_ref=1 / me_range=16 / chroma_me=1 / trellis=1 / 8x8dct=1 / cqm=0 / deadzone=21,11 / fast_pskip=1 / chroma_qp_offset=-2 / threads=4 / sliced_threads=0 / nr=0 / decimate=1 / interlaced=0 / constrained_intra=0 / bframes=3 / b_pyramid=2 / b_adapt=1 / b_bias=0 / direct=1 / weightb=1 / open_gop=0 / weightp=2 / keyint=250 / keyint_min=25 / scenecut=40 / intra_refresh=0 / rc_lookahead=40 / rc=abr / mbtree=1 / bitrate=10000 / ratetol=1.0 / qcomp=0.60 / qpmin=10 / qpmax=51 / qpstep=4 / ip_ratio=1.41 / aq=1:1.00
Language : English
Default : Yes
Forced : No

Audio #1
ID : 2
Format : AC-3
Format/Info : Audio Coding 3
Mode extension : CM (complete main)
Format settings, Endianness : Big
Codec ID : A_AC3
Duration : 1h 32mn
Bit rate mode : Constant
Bit rate : 640 Kbps
Channel(s) : 6 channels
Channel positions : Front: L C R, Side: L R, LFE
Sampling rate : 48.0 KHz
Bit depth : 16 bits
Compression mode : Lossy
Delay relative to video : 24ms
Stream size : 425 MiB (5%)
Title : AC3 5.1 640 Kbps
Language : French
Default : Yes
Forced : No

Audio #2
ID : 3
Format : DTS
Format/Info : Digital Theater Systems
Mode : 16
Format settings, Endianness : Big
Codec ID : A_DTS
Duration : 1h 32mn
Bit rate mode : Constant
Bit rate : 1 510 Kbps
Channel(s) : 6 channels
Channel positions : Front: L C R, Side: L R, LFE
Sampling rate : 48.0 KHz
Bit depth : 24 bits
Compression mode : Lossy
Stream size : 1 002 MiB (13%)
Title : DTS 5.1
Language : English
Default : No
Forced : No

Text
ID : 4
Format : UTF-8
Codec ID : S_TEXT/UTF8
Codec ID/Info : UTF-8 Plain Text
Title : sub fr
Language : French
Default : No
Forced : No