Telecharger Shrek 4, il était une fin[BLURAY 1080p]

(TRUEFRENCH = Vraie voix française)

Qualité BLURAY 720p | TRUEFRENCH

Origine du film : Américain
Réalisateur : Mike Mitchell (V)
Acteurs : Alain Chabat, Med Hondo, Barbara Tissier
Genre : Animation, Comédie, Fantastique
Durée : 1h 33min
Date de sortie : 30 juin 2010
Année de production : 2010
Titre Original : Shrek Forever After
Distribué par : Paramount Pictures France
Note presse : 3,2/5
Note spectateurs :

; »>3,3/5 (10749)

Après avoir vaincu un méchant dragon, sauvé une belle princesse et le royaume de ses parents, que peut encore faire un ogre malodorant et mal léché ? Domestiqué, assagi, Shrek a perdu jusqu’à l’envie de rugir et regrette le bon vieux temps où il semait la terreur dans le royaume. Aujourd’hui, tel une idole déchue, il se contente de signer des autographes à tour de bras. Trop triste…C’est alors que l’habile et sournois Tracassin lui propose un contrat. Shrek se retrouve soudain transporté dans un monde parallèle totalement déjanté où les ogres sont pourchassés, où Tracassin est roi, où Fiona et son bien-aimé ne se jamais rencontrés…Shrek va-t-il réussir à déjouer le sortilège, à repasser de l’autre côté du miroir, à sauver ses amis, à retrouver son monde et reconquérir l’amour de sa vie ?

news-id-141884″ style= »display:inline; »>

Format : x264
Découpé avec : Winrar

Shrek.4.2010.TRUEFRENCH.720p.BluRay.x264-St4f

(2520 Mo)

[Liens Interchangeables entre hébergeurs: 2x 1000 Mo + 1x 520 Mo]

Uptobox
Télécharger

Uplea
Télécharger

1fichier
Télécharger

Uploaded
Télécharger

Rapidgator
Télécharger

TurboBit
Télécharger

[Lien Premium]

Uptobox
Télécharger

Uplea
Télécharger

1fichier
Télécharger

Uploaded
Télécharger

Rapidgator
Télécharger

TurboBit
Télécharger

NFO :

Afficher / Masquer le texte d502ca177140a6d1a9c2cccd7d52d6de » class= »text_spoiler » style= »display:none; »>
General
Unique ID : 222063985560467978188848771095974780503 (0xA70FF7CAA8D2984596B0970A76E21E57)
Complete name : G:Shrek les 4 films en 3D et 1080p et x265 et 720pShrek.4.2010.TRUEFRENCH.720p.BluRay.x264-St4f-www.Zone-Telechargement.com.mkv
Format : Matroska
Format version : Version 4 / Version 2
File size : 2.52 GiB
Duration : 1h 33mn
Overall bit rate : 3 865 Kbps
Encoded date : UTC 2013-07-21 13:03:14
Writing application : mkvmerge v6.2.0 ('Promised Land') built on Apr 28 2013 12:22:01
Writing library : libebml v1.3.0 + libmatroska v1.4.0

Video
ID : 1
Format : AVC
Format/Info : Advanced Video Codec
Format profile : [email protected]
Format settings, CABAC : Yes
Format settings, ReFrames : 5 frames
Codec ID : V_MPEG4/ISO/AVC
Duration : 1h 33mn
Bit rate : 3 415 Kbps
Width : 1 280 pixels
Height : 544 pixels
Display aspect ratio : 2.35:1
Frame rate mode : Constant
Frame rate : 23.976 fps
Color space : YUV
Chroma subsampling : 4:2:0
Bit depth : 8 bits
Scan type : Progressive
Bits/(Pixel*Frame) : 0.205
Stream size : 2.17 GiB (86%)
Writing library : x264 core 107 r1772 c9dad9e
Encoding settings : cabac=1 / ref=5 / deblock=1:0:0 / analyse=0x3:0x113 / me=umh / subme=7 / psy=1 / psy_rd=1.00:0.15 / mixed_ref=1 / me_range=16 / chroma_me=1 / trellis=1 / 8x8dct=1 / cqm=0 / deadzone=21,11 / fast_pskip=0 / chroma_qp_offset=-3 / threads=12 / sliced_threads=0 / nr=0 / decimate=1 / interlaced=0 / constrained_intra=0 / bframes=3 / b_pyramid=2 / b_adapt=1 / b_bias=0 / direct=1 / weightb=1 / open_gop=0 / weightp=2 / keyint=250 / keyint_min=23 / scenecut=40 / intra_refresh=0 / rc_lookahead=40 / rc=2pass / mbtree=1 / bitrate=3415 / ratetol=1.0 / qcomp=0.60 / qpmin=10 / qpmax=51 / qpstep=4 / cplxblur=20.0 / qblur=0.5 / ip_ratio=1.40 / aq=1:1.00
Language : English
Default : Yes
Forced : No

Audio
ID : 2
Format : AC-3
Format/Info : Audio Coding 3
Mode extension : CM (complete main)
Format settings, Endianness : Big
Codec ID : A_AC3
Duration : 1h 33mn
Bit rate mode : Constant
Bit rate : 448 Kbps
Channel(s) : 2 channels
Channel positions : Front: L R
Sampling rate : 48.0 KHz
Bit depth : 16 bits
Compression mode : Lossy
Stream size : 299 MiB (12%)
Title : French
Language : French
Default : Yes
Forced : No

Menu
00:00:00.000 : en:00:00:00.000
00:04:47.787 : en:00:04:47.787
00:08:39.936 : en:00:08:39.936
00:14:51.724 : en:00:14:51.724
00:19:51.190 : en:00:19:51.190
00:24:43.315 : en:00:24:43.315
00:33:22.334 : en:00:33:22.334
00:41:11.469 : en:00:41:11.469
00:44:51.272 : en:00:44:51.272
00:48:32.451 : en:00:48:32.451
00:51:31.630 : en:00:51:31.630
00:53:02.388 : en:00:53:02.388
00:58:25.961 : en:00:58:25.961
01:03:13.748 : en:01:03:13.748
01:05:48.862 : en:01:05:48.862
01:12:34.475 : en:01:12:34.475
01:20:00.421 : en:01:20:00.421
01:23:13.822 : en:01:23:13.822

223
-
0%
Votes : 1