Telecharger Shrek 2[BLURAY 1080p]

(TRUEFRENCH = Vraie voix française)

Qualité BLURAY 720p | TRUEFRENCH

Origine du film : Américain
Réalisateur : Andrew Adamson
Acteurs : Alain Chabat, Med Hondo, Barbara Tissier
Genre : Animation, Comédie
Durée : 1h 30min
Date de sortie : 23 juin 2004
Année de production : 2004
Distribué par : United International Pictures (UIP)
Note presse : 4,1/5
Note spectateurs :

; »>4,0/5 (40073)

Devenus de jeunes mariés, Shrek et Fiona rentrent de leur heureuse lune de miel. Ils sont invités par les parents de Fiona à venir dîner dans leur royaume, à Far Far Away. Mais ils ne se doutent pas que leur fille est devenue une ravissante ogresse…Ce mariage met par ailleurs en péril l’avenir et les projets les plus secrets du Roi…

news-id-141855″ style= »display:inline; »>

Format : x264
Découpé avec : Winrar

Shrek.2.2004.TRUEFRENCH.720p.BluRay.x264-St4f

(2020 Mo)

[Liens Interchangeables entre hébergeurs: 2x 1000 Mo + 1x 20 Mo]

Uptobox
Télécharger

Uplea
Télécharger

1fichier
Télécharger

Uploaded
Télécharger

Rapidgator
Télécharger

TurboBit
Télécharger

[Lien Premium]

Uptobox
Télécharger

Uplea
Télécharger

1fichier
Télécharger

Uploaded
Télécharger

Rapidgator
Télécharger

TurboBit
Télécharger

NFO :

Afficher / Masquer le texte 433a851f48745a03826e111e7bd88cd1″ class= »text_spoiler » style= »display:none; »>
General
Unique ID : 251039152607727754331138395258490996066 (0xBCDC61D2C0B53D168D28D65E8D804562)
Complete name : G:Shrek les 4 films en 3D et 1080p et x265 et 720pShrek.2.2004.TRUEFRENCH.720p.BluRay.x264-St4f-www.Zone-Telechargement.com.mkv
Format : Matroska
Format version : Version 4 / Version 2
File size : 2.02 GiB
Duration : 1h 32mn
Overall bit rate : 3 128 Kbps
Encoded date : UTC 2013-07-18 16:23:52
Writing application : mkvmerge v6.2.0 ('Promised Land') built on Apr 28 2013 12:22:01
Writing library : libebml v1.3.0 + libmatroska v1.4.0

Video
ID : 1
Format : AVC
Format/Info : Advanced Video Codec
Format profile : [email protected]
Format settings, CABAC : Yes
Format settings, ReFrames : 5 frames
Codec ID : V_MPEG4/ISO/AVC
Duration : 1h 32mn
Bit rate : 2 744 Kbps
Width : 1 280 pixels
Height : 720 pixels
Display aspect ratio : 16:9
Frame rate mode : Constant
Frame rate : 23.976 fps
Color space : YUV
Chroma subsampling : 4:2:0
Bit depth : 8 bits
Scan type : Progressive
Bits/(Pixel*Frame) : 0.124
Stream size : 1.73 GiB (86%)
Writing library : x264 core 107 r1745 4785e8e
Encoding settings : cabac=1 / ref=5 / deblock=1:0:0 / analyse=0x3:0x133 / me=umh / subme=7 / psy=1 / psy_rd=1.00:0.00 / mixed_ref=1 / me_range=16 / chroma_me=1 / trellis=1 / 8x8dct=1 / cqm=0 / deadzone=21,11 / fast_pskip=1 / chroma_qp_offset=-2 / threads=6 / sliced_threads=0 / nr=0 / decimate=1 / interlaced=0 / constrained_intra=0 / bframes=3 / b_pyramid=2 / b_adapt=2 / b_bias=0 / direct=3 / weightb=1 / open_gop=0 / weightp=2 / keyint=250 / keyint_min=23 / scenecut=40 / intra_refresh=0 / rc=2pass / mbtree=0 / bitrate=2744 / ratetol=1.0 / qcomp=0.60 / qpmin=10 / qpmax=51 / qpstep=4 / cplxblur=20.0 / qblur=0.5 / ip_ratio=1.40 / pb_ratio=1.30 / aq=1:1.00
Language : English
Default : No
Forced : No

Audio
ID : 2
Format : AC-3
Format/Info : Audio Coding 3
Mode extension : CM (complete main)
Format settings, Endianness : Big
Codec ID : A_AC3
Duration : 1h 32mn
Bit rate mode : Constant
Bit rate : 384 Kbps
Channel(s) : 6 channels
Channel positions : Front: L C R, Side: L R, LFE
Sampling rate : 48.0 KHz
Bit depth : 16 bits
Compression mode : Lossy
Stream size : 254 MiB (12%)
Title : French
Language : French
Default : Yes
Forced : No