Télécharger Pattaya[WEBRIP]

Qualité WEBRiP | FRENCH

Origine du film : Français
Réalisateur : Franck Gastambide
Acteurs : Franck Gastambide, Malik Bentalha, Anouar Toubali
Genre : Comédie
Durée : 1h 37min
Date de sortie : 24 février 2016
Année de production : 2014
Distribué par : Gaumont Distribution
Note presse : 3,0/5
Note spectateurs :

; »>2,5/5 (1654)

Franky et Krimo rêvent de quitter la grisaille de leur quartier pour partir en voyage dans la célèbre et sulfureuse station balnéaire thaïlandaise de PATTAYA. Pour pouvoir s’y rendre à moindre coût, les deux amis ont la folle idée d’inscrire à son insu le nain de leur quartier au championnat du monde de Boxe Thaï des Nains. Mais ce qui devait être pour eux des vacances de rêves va se transformer en l’aventure la plus dingue et périlleuse de leurs vies.

news-id-141118″ style= »display:inline; »>

Format : MPEG-4 (MP4)

PATTAYA.2016.FRENCH.WEBRIP-RGNS.MP4

(700 Mo)

Vidéo : 7.5/10 | Audio : 8/10
Télécharger un extrait du film Pattaya

Uptobox
Télécharger

Uplea
Télécharger

1fichier
Télécharger

Uploaded
Télécharger

Rapidgator
Télécharger

TurboBit
Télécharger

NFO :

 Afficher / Masquer le texte bec140a6aad2e1af76c3b4abe3d88688″ class= »text_spoiler » style= »display:none; »>
Format                      : MPEG-4
Format profile : Base Media / Version 2
Codec ID : mp42 (isom/mp42)
File size : 727 MiB
Duration : 1h 32mn
Overall bit rate mode : Variable
Overall bit rate : 1 105 Kbps
Encoded date : UTC 2016-06-25 04:35:39
Tagged date : UTC 2016-06-25 04:35:39

Video
ID : 1
Format : AVC
Format/Info : Advanced Video Codec
Format profile : [email protected]
Format settings, CABAC : Yes
Format settings, ReFrames : 3 frames
Codec ID : avc1
Codec ID/Info : Advanced Video Coding
Duration : 1h 32mn
Source duration : 1h 32mn
Bit rate : 976 Kbps
Width : 1 280 pixels
Height : 720 pixels
Display aspect ratio : 16:9
Frame rate mode : Variable
Frame rate : 30.000 fps
Minimum frame rate : 30.000 fps
Maximum frame rate : 30.030 fps
Standard : NTSC
Color space : YUV
Chroma subsampling : 4:2:0
Bit depth : 8 bits
Scan type : Progressive
Bits/(Pixel*Frame) : 0.035
Stream size : 643 MiB (88%)
Source stream size : 643 MiB (88%)
Language : English
Encoded date : UTC 2016-06-25 04:35:39
Tagged date : UTC 2016-06-25 04:35:39
Color range : Limited
mdhd_Duration : 5520267

Audio
ID : 2
Format : AAC
Format/Info : Advanced Audio Codec
Format profile : LC
Codec ID : 40
Duration : 1h 32mn
Source duration : 1h 32mn
Bit rate mode : Variable
Bit rate : 126 Kbps
Maximum bit rate : 165 Kbps
Channel(s) : 2 channels
Channel positions : Front: L R
Sampling rate : 44.1 KHz
Frame rate : 43.066 fps (1024 spf)
Compression mode : Lossy
Stream size : 82.7 MiB (11%)
Source stream size : 82.7 MiB (11%)
Language : Français
Encoded date : UTC 2016-06-25 04:35:39
Tagged date : UTC 2016-06-25 04:35:39
mdhd_Duration : 5520312

1257
-
Votes : 0