Telecharger Midnight Special [DVDRiP] French

(TRUEFRENCH = Vraie voix française)

Qualité 1080p HDLight | MULTiLANGUES (Avec TRUEFRENCH)

Origine du film : Américain
Réalisateur : Jeff Nichols
Acteurs : Michael Shannon, Jaeden Lieberher, Joel Edgerton
Genre : Aventure, Science fiction, Drame
Durée : 1h 51min
Date de sortie : 16 mars 2016
Année de production : 2016
Distribué par : Warner Bros. France
Note presse : 4,2/5
Note spectateurs :

; »>3,4/5 (2438)

Fuyant d’abord des fanatiques religieux et des forces de police, Roy, père de famille et son fils Alton, se retrouvent bientôt les proies d’une chasse à l’homme à travers tout le pays, mobilisant même les plus hautes instances du gouvernement fédéral. En fin de compte, le père risque tout pour sauver son fils et lui permettre d’accomplir son destin. Un destin qui pourrait bien changer le monde pour toujours.

news-id-140870″ style= »display:inline; »>

Format : x264
Découpé avec : Winrar

Midnight.Special.2016.1080p.VFF.EN.X264.AC3-mHDgz

(2085 Mo)

[Liens Interchangeables entre hébergeurs: 2x 700 Mo + 1x 685 Mo]

Uptobox
Partie 1
Partie 2
Partie 3

Uplea
Partie 1
Partie 2
Partie 3

1fichier
Partie 1
Partie 2
Partie 3

Uploaded
Partie 1
Partie 2
Partie 3

Rapidgator
Partie 1
Partie 2
Partie 3

TurboBit
Partie 1
Partie 2
Partie 3

[Liens PREMIUM]

Uptobox
Télécharger

Uplea
Télécharger

1fichier
Télécharger

Uploaded
Télécharger

Rapidgator
Télécharger

TurboBit
Télécharger

NFO :

 Afficher / Masquer le texte d79aebd0b337c848e73891f28e354582″ class= »text_spoiler » style= »display:none; »>
General
Format : Matroska
Format version : Version 2
File size : 2.04 GiB
Duration : 1h 51mn
Overall bit rate : 2 604 Kbps
Encoded date : UTC 2016-06-21T23:49:05Z
Writing application : HandBrake 0.10.5 2016021100
Writing library : Lavf55.12.0

Video
ID : 1
Format : AVC
Format/Info : Advanced Video Codec
Format profile : [email protected]
Format settings, CABAC : Yes
Format settings, ReFrames : 5 frames
Codec ID : V_MPEG4/ISO/AVC
Duration : 1h 51mn
Width : 1 920 pixels
Height : 800 pixels
Display aspect ratio : 2.40:1
Frame rate mode : Constant
Frame rate : 23.976 fps
Color space : YUV
Chroma subsampling : 4:2:0
Bit depth : 8 bits
Scan type : Progressive
Writing library : x264 core 142 r2479 dd79a61
Encoding settings : cabac=1 / ref=5 / deblock=1:-1:-1 / analyse=0x3:0x113 / me=umh / subme=8 / psy=1 / psy_rd=1.00:0.15 / mixed_ref=1 / me_range=16 / chroma_me=1 / trellis=1 / 8x8dct=1 / cqm=0 / deadzone=21,11 / fast_pskip=1 / chroma_qp_offset=-3 / threads=18 / lookahead_threads=3 / sliced_threads=0 / nr=0 / decimate=1 / interlaced=0 / bluray_compat=0 / constrained_intra=0 / bframes=3 / b_pyramid=2 / b_adapt=2 / b_bias=0 / direct=3 / weightb=1 / open_gop=0 / weightp=2 / keyint=240 / keyint_min=24 / scenecut=40 / intra_refresh=0 / rc_lookahead=50 / rc=crf / mbtree=1 / crf=24.0 / qcomp=0.60 / qpmin=0 / qpmax=69 / qpstep=4 / vbv_maxrate=62500 / vbv_bufsize=78125 / crf_max=0.0 / nal_hrd=none / filler=0 / ip_ratio=1.40 / aq=1:1.00
Default : Yes
Forced : No
Color primaries : BT.709
Transfer characteristics : BT.709
Matrix coefficients : BT.709

Audio #1
ID : 2
Format : AC-3
Format/Info : Audio Coding 3
Mode extension : CM (complete main)
Format settings, Endianness : Big
Codec ID : A_AC3
Duration : 1h 51mn
Bit rate mode : Constant
Bit rate : 384 Kbps
Channel(s) : 6 channels
Channel positions : Front: L C R, Side: L R, LFE
Sampling rate : 48.0 KHz
Bit depth : 16 bits
Compression mode : Lossy
Delay relative to video : 1mn 5s
Stream size : 308 MiB (15%)
Title : Surround
Language : French
Default : Yes
Forced : No

Audio #2
ID : 3
Format : AC-3
Format/Info : Audio Coding 3
Mode extension : CM (complete main)
Format settings, Endianness : Big
Codec ID : A_AC3
Duration : 1h 51mn
Bit rate mode : Constant
Bit rate : 384 Kbps
Channel(s) : 6 channels
Channel positions : Front: L C R, Side: L R, LFE
Sampling rate : 48.0 KHz
Bit depth : 16 bits
Compression mode : Lossy
Delay relative to video : 1mn 5s
Stream size : 308 MiB (15%)
Title : Surround
Language : English
Default : No
Forced : No

Audio #3
ID : 4
Format : AAC
Format/Info : Advanced Audio Codec
Format profile : LC
Codec ID : A_AAC
Duration : 1h 51mn
Channel(s) : 2 channels
Channel positions : Front: L R
Sampling rate : 48.0 KHz
Compression mode : Lossy
Delay relative to video : 1mn 5s
Title : Stereo
Language : French
Default : No
Forced : No

Text #1
ID : 5
Format : ASS
Codec ID : S_TEXT/ASS
Codec ID/Info : Advanced Sub Station Alpha
Compression mode : Lossless
Language : French
Default : No
Forced : No

Text #2
ID : 6
Format : ASS
Codec ID : S_TEXT/ASS
Codec ID/Info : Advanced Sub Station Alpha
Compression mode : Lossless
Language : French
Default : No
Forced : No

Menu
00:00:00.000 : :00:00:00.000
00:12:53.356 : :00:12:53.189
00:23:34.579 : :00:23:34.413
00:31:31.806 : :00:31:31.681
00:41:39.747 : :00:41:39.539
00:51:50.273 : :00:51:50.107
01:01:02.325 : :01:01:02.242
01:13:30.406 : :01:13:30.239
01:24:15.383 : :01:24:15.217
01:34:09.268 : :01:34:09.060
01:46:35.180 : :01:46:35.014