Telecharger Les Simpson – le film[BLURAY 720p]

(TRUEFRENCH = Vraie voix française)

Qualité BLURAY 720p | TRUEFRENCH

Origine du film : Américain
Réalisateur : David Silverman
Acteurs : Philip Rosenthal, Dan Castellaneta, Julie Kavner
Genre : Animation
Durée : 1h 30min
Date de sortie : 25 juillet 2007
Année de production : 2007
Titre Original : The Simpsons Movie
Distribué par : Twentieth Century Fox France
Note presse : 3,8/5
Note spectateurs :

; »>3,9/5 (32007)

Lorsqu’Homer pollue gravement le lac de Springfield, une agence de protection de l’environnement décide de mettre la ville en quarantaine en l’isolant sous un énorme dôme. Les Springfieldiens, fous de rage, sont bien décidés à lyncher le coupable. Devant cette vague d’animosité, les Simpson n’ont d’autre choix que de fuir et de s’exiler en Alaska.

news-id-141951″ style= »display:inline; »>

Format : x264
Découpé avec : Winrar
Sous-titres : Forcé pour les passages en langue étrangère.

Les.Simpson.le.film.2007.TRUEFRENCH.Subforced.BluRay.720p.H264.AC3-FlaW313

(2083 Mo)

[Liens Interchangeables entre hébergeurs: 2x 1000 Mo + 1x 83 Mo]

Uptobox
Partie 1
Partie 2
Partie 3

Uplea
Partie 1
Partie 2
Partie 3

1fichier
Partie 1
Partie 2
Partie 3

Uploaded
Partie 1
Partie 2
Partie 3

Rapidgator
Partie 1
Partie 2
Partie 3

TurboBit
Partie 1
Partie 2
Partie 3

[Liens PREMIUM]

Uptobox
Télécharger

Uplea
Télécharger

1fichier
Télécharger

Uploaded
Télécharger

Rapidgator
Télécharger

TurboBit
Télécharger

NFO :

Afficher / Masquer le texte 49bcd6486d64e596af6a8607bae53344″ class= »text_spoiler » style= »display:none; »>
General
Format : Matroska
Format version : Version 2
File size : 2.03 GiB
Duration : 1h 26mn
Overall bit rate : 3 356 Kbps
Encoded date : UTC 2016-06-29T16:57:55Z
Writing application : HandBrake 0.10.5 2016021100
Writing library : Lavf55.12.0

Video
ID : 1
Format : AVC
Format/Info : Advanced Video Codec
Format profile : [email protected]
Format settings, CABAC : Yes
Format settings, ReFrames : 3 frames
Codec ID : V_MPEG4/ISO/AVC
Duration : 1h 26mn
Bit rate : 2 201 Kbps
Width : 1 392 pixels
Height : 576 pixels
Display aspect ratio : 2.40:1
Frame rate mode : Constant
Frame rate : 23.976 fps
Color space : YUV
Chroma subsampling : 4:2:0
Bit depth : 8 bits
Scan type : Progressive
Bits/(Pixel*Frame) : 0.115
Stream size : 1.33 GiB (66%)
Writing library : x264 core 142 r2479 dd79a61
Encoding settings : cabac=1 / ref=2 / deblock=1:0:0 / analyse=0x3:0x133 / me=umh / subme=8 / psy=1 / psy_rd=1.00:0.00 / mixed_ref=1 / me_range=32 / chroma_me=1 / trellis=2 / 8x8dct=1 / cqm=0 / deadzone=21,11 / fast_pskip=1 / chroma_qp_offset=-2 / threads=12 / lookahead_threads=2 / sliced_threads=0 / nr=0 / decimate=1 / interlaced=0 / bluray_compat=0 / constrained_intra=0 / bframes=3 / b_pyramid=1 / b_adapt=2 / b_bias=0 / direct=3 / weightb=1 / open_gop=0 / weightp=2 / keyint=240 / keyint_min=24 / scenecut=40 / intra_refresh=0 / rc_lookahead=40 / rc=crf / mbtree=1 / crf=17.0 / qcomp=0.60 / qpmin=0 / qpmax=69 / qpstep=4 / vbv_maxrate=50000 / vbv_bufsize=62500 / crf_max=0.0 / nal_hrd=none / filler=0 / ip_ratio=1.40 / aq=1:1.00
Default : Yes
Forced : No
Color primaries : BT.709
Transfer characteristics : BT.709
Matrix coefficients : BT.709

Audio #1
ID : 2
Format : AC-3
Format/Info : Audio Coding 3
Format profile : Dolby Digital
Mode extension : CM (complete main)
Format settings, Endianness : Big
Codec ID : A_AC3
Duration : 1h 26mn
Bit rate mode : Constant
Bit rate : 448 Kbps
Channel(s) : 2 channels
Channel positions : Front: L R
Sampling rate : 48.0 KHz
Bit depth : 16 bits
Compression mode : Lossy
Delay relative to video : 1mn 5s
Stream size : 278 MiB (13%)
Title : FR - 2.0 Dolby Pro Logic II - AC3
Default : Yes
Forced : No

Audio #2
ID : 3
Format : AC-3
Format/Info : Audio Coding 3
Mode extension : CM (complete main)
Format settings, Endianness : Big
Codec ID : A_AC3
Duration : 1h 26mn
Bit rate mode : Constant
Bit rate : 640 Kbps
Channel(s) : 6 channels
Channel positions : Front: L C R, Side: L R, LFE
Sampling rate : 48.0 KHz
Bit depth : 16 bits
Compression mode : Lossy
Stream size : 397 MiB (19%)
Title : FR - 5.1 Channels - AC3
Default : No
Forced : No