Telecharger Les Remplaçants[BLURAY 720p]

(TRUEFRENCH = Vraie voix française)

Qualité HDTV 720p | MULTiLANGUES (Avec TRUEFRENCH)

Origine du film : Américain
Réalisateur : Howard Deutch
Acteurs : Keanu Reeves, Gene Hackman, Brooke Langton
Genre : Comédie dramatique
Date de sortie : 5 mars 2003
Année de production : 2000
Titre Original : The Replacements
Note spectateurs :

; »>3,6/5 (123)

Shane Falco, une étoile montante du football professionnel, a depuis longtemps cessé son ascension vers la gloire : la chance ne lui a jamais souri jusqu’au jour où…
Une grève déclenchée par les joueurs de football professionnel vide les terrains et les gradins au grand désespoir des propriétaires. Les Washington Redskins doivent régler ce sérieux problème s’ils ne veulent pas finir derniers une fois de plus.
L’ancien entraîneur Jimmy McGinty est appelé à la rescousse. Ce dernier souhaite faire évoluer l’équipe pour sauver la saison, mais seulement avec des joueurs passionnés.
Pour la ligue de football, cette grève est un désastre financier ; pour Shane et une poignée de joueurs étrangers ou inconnus, c’est une seconde chance. Ces nouveaux remplaçants, dont un lutteur sumo, un policier déjanté, un joueur de soccer européen et deux jumeaux gigantesques, épatent la foule par leurs jeux sensationnels et développent un excellent esprit d’équipe. Les Washington Redskins vont enfin pouvoir participer au championnat.

news-id-141029″ style= »display:inline; »>

Format : x264
Découpé avec : Winrar

The.Replacements.2000.Hdtv.720p.x264.ENG.VFQ.VFF

(3710 Mo)

[Liens Interchangeables entre hébergeurs: 3x 1000 Mo + 1x 710 Mo]

Uptobox
Télécharger

Uploaded
Télécharger

TurboBit
Télécharger

Rapidgator
Télécharger

Uplea
Télécharger

1fichier
Télécharger

[Lien Premium]

Uptobox
Télécharger

Uploaded
Télécharger

TurboBit
Télécharger

Uplea
Télécharger

1fichier
Télécharger

NFO :

Afficher / Masquer le texte 6db2cf9e90701889a0deae6d07c2d62a » class= »text_spoiler » style= »display:none; »>
■General

Format : Matroska

Format version : Version 2

File size : 3.72 GiB

Duration : 1h 58mn

Overall bit rate : 4 498 Kbps

Movie name : The Replacements

Encoded date : UTC 2014-01-13 05:28:33

Writing application : mkvmerge v5.3.0 ('I could have danced') built on Feb 9 2012 10:38:07

Writing library : libebml v1.2.3 + libmatroska v1.3.0



Video

ID : 1

Format : AVC

Format/Info : Advanced Video Codec

Format profile : [email protected]

Format settings, CABAC : No

Format settings, ReFrames : 2 frames

Format settings, GOP : N=1

Muxing mode : Header stripping

Codec ID : V_MPEG4/ISO/AVC

Duration : 1h 58mn

Bit rate : 3 832 Kbps

Width : 1 276 pixels

Height : 720 pixels

Display aspect ratio : 16:9

Frame rate mode : Constant

Frame rate : 23.976 fps

Color space : YUV

Chroma subsampling : 4:2:0

Bit depth : 8 bits

Scan type : Progressive

Bits/(Pixel*Frame) : 0.174

Stream size : 3.17 GiB (85%)

Language : English

Default : Yes

Forced : No

Color primaries : BT.709

Transfer characteristics : BT.709

Matrix coefficients : BT.709



Audio #1

ID : 2

Format : AC-3

Format/Info : Audio Coding 3

Mode extension : CM (complete main)

Format settings, Endianness : Big

Muxing mode : Header stripping

Codec ID : A_AC3

Duration : 1h 58mn

Bit rate mode : Constant

Bit rate : 192 Kbps

Channel count : 2 channels

Channel positions : Front: L R

Sampling rate : 48.0 KHz

Bit depth : 16 bits

Compression mode : Lossy

Stream size : 162 MiB (4%)

Title : ENG

Language : English

Default : Yes

Forced : No



Audio #2

ID : 3

Format : AC-3

Format/Info : Audio Coding 3

Mode extension : CM (complete main)

Format settings, Endianness : Big

Muxing mode : Header stripping

Codec ID : A_AC3

Duration : 1h 58mn

Bit rate mode : Constant

Bit rate : 192 Kbps

Channel count : 2 channels

Channel positions : Front: L R

Sampling rate : 48.0 KHz

Bit depth : 16 bits

Compression mode : Lossy

Delay relative to video : 24ms

Stream size : 162 MiB (4%)

Title : VFQ

Language : French

Default : No

Forced : No



Audio #3

ID : 4

Format : AC-3

Format/Info : Audio Coding 3

Mode extension : CM (complete main)

Format settings, Endianness : Big

Muxing mode : Header stripping

Codec ID : A_AC3

Duration : 1h 58mn

Bit rate mode : Constant

Bit rate : 192 Kbps

Channel count : 2 channels

Channel positions : Front: L R

Sampling rate : 48.0 KHz

Bit depth : 16 bits

Compression mode : Lossy

Delay relative to video : 14ms

Stream size : 162 MiB (4%)

Title : VFF

Language : French

Default : No

Forced : No



Menu

00:00:00.000 : en:Deep for a Pass

00:02:23.000 : en:Replacement Scheme

00:06:26.000 : en:Team Roster

00:08:45.000 : en:Footsteps Falco

00:11:12.000 : en:Scabs Come to Practice

00:14:36.000 : en:Jailbird to Mammoth

00:16:58.000 : en:Car - and Other - Troubles

00:21:03.000 : en:Red-Shirt Thing

00:22:55.000 : en:Auditions With Attitude

00:25:28.000 : en:A Con, A Cop and (Pussy)Cats

00:27:48.000 : en:Annabelle at the Wheel

00:30:14.000 : en:Professional Players

00:33:32.000 : en:Not Quite Teamwork

00:37:17.000 : en:Team Activity

00:40:57.000 : en:Congrats to Gruff

00:43:46.000 : en:Get Me the Ball

00:46:00.000 : en:Heartbreaker

00:48:32.000 : en:The Endzone

00:51:45.000 : en:Jail Jubilation

00:55:04.000 : en:Wild Yam and Sympathy

00:58:16.000 : en:His Protection

01:00:23.000 : en:Like Quicksand

01:04:11.000 : en:Fat-Guy Dance

01:06:11.000 : en:Friendly Distractions

01:08:51.000 : en:Gruff's Smokin'

01:12:40.000 : en:Falco Scores

01:17:34.000 : en:Sticking it to Franklin

01:20:54.000 : en:Locker-Room Coverage

01:22:03.000 : en:His Replacement

01:26:38.000 : en:Farewell toast

01:29:48.000 : en:Broken Date

01:31:18.000 : en:Martel's Return

01:35:30.000 : en:Needed: Heart

01:37:26.000 : en:The Rereplacement

01:40:48.000 : en:Goin' out Scoring

01:42:44.000 : en:Glory Lasts Forever

01:45:11.000 : en:A Favor for Gruff

01:47:50.000 : en:Final Score (Heroes)

01:51:51.000 : en:Greatness (I Will Survive)

01:53:12.000 : en:End Credits (The Look in Your Eyes)