Telecharger Légendes d'automne [DVDRiP] French

(TRUEFRENCH = Vraie voix française)

Qualité 1080p HDLight | MULTiLANGUES (Avec TRUEFRENCH)

Origine du film : Américain
Réalisateur : Edward Zwick
Acteurs : Anthony Hopkins, Brad Pitt, Aidan Quinn
Genre : Guerre, Romance
Durée : 2h 13min
Date de sortie : 5 avril 1995
Année de production : 1994
Titre Original : Legends of the Fall
Note presse : 2,0/5
Note spectateurs :

; »>3,9/5 (6701)

Au cœur des contrées sauvages du Montana, trois frères, Alfred, Tristan et Samuel sont élevés par leur père, le colonel William Ludlow et ses amis indiens. Un jour, Samuel, le plus fragile, présente sa ravissante fiancée, Susannah à sa famille. Les trois jeunes hommes s’engagent dans la première Guerre Mondiale et Samuel décède sur le champ de bataille. A leur retour, Tristan et Alfred se battent pour conquérir le cœur de la belle veuve.

news-id-143127″ style= »display:inline; »>

Format : x264
Découpé avec : Winrar

Legendes.D.automne.1994.1080p.FR.EN.x264.ac3.mHDgz

(3700 Mo)

[Liens Interchangeables entre hébergeurs: 3x 1000 Mo + 1x 700 Mo]

Uptobox
Télécharger

Uplea
Télécharger

1fichier
Télécharger

Uploaded
Télécharger

Rapidgator
Télécharger

TurboBit
Télécharger

[Lien Premium]

Uptobox
Télécharger

Uplea
Télécharger

1fichier
Télécharger

Uploaded
Télécharger

Rapidgator
Télécharger

TurboBit
Télécharger

NFO :

 Afficher / Masquer le texte 017cd4275484ac80db9cc61801747e54″ class= »text_spoiler » style= »display:none; »>
General
Unique ID : 122385440587902025096126403554472381813 (0x5C1294172B30F8F9CA404A43B3CC4D75)
Complete name : G:HDLightLegendes.D.automne.1994.1080p.FR.EN.x264.ac3.mHDgz-www.Zone-Telechargement.com.mkv
Format : Matroska
Format version : Version 2
File size : 3.70 GiB
Duration : 2h 12mn
Overall bit rate : 3 984 Kbps
Writing application : HandBrake 0.9.9
Writing library : libmkv 0.6.5

Video
ID : 1
Format : AVC
Format/Info : Advanced Video Codec
Format profile : [email protected]
Format settings, CABAC : Yes
Format settings, ReFrames : 4 frames
Codec ID : V_MPEG4/ISO/AVC
Duration : 2h 12mn
Width : 1 920 pixels
Height : 1 040 pixels
Display aspect ratio : 1.85:1
Frame rate mode : Constant
Frame rate : 23.976 fps
Color space : YUV
Chroma subsampling : 4:2:0
Bit depth : 8 bits
Scan type : Progressive
Writing library : x264 core 130 r2273 b3065e6
Encoding settings : cabac=1 / ref=4 / deblock=1:-1:-1 / analyse=0x3:0x113 / me=umh / subme=8 / psy=1 / psy_rd=1.00:0.15 / mixed_ref=1 / me_range=16 / chroma_me=1 / trellis=1 / 8x8dct=1 / cqm=0 / deadzone=21,11 / fast_pskip=1 / chroma_qp_offset=-3 / threads=18 / lookahead_threads=3 / sliced_threads=0 / nr=0 / decimate=1 / interlaced=0 / bluray_compat=0 / constrained_intra=0 / bframes=3 / b_pyramid=2 / b_adapt=2 / b_bias=0 / direct=3 / weightb=1 / open_gop=0 / weightp=2 / keyint=240 / keyint_min=24 / scenecut=40 / intra_refresh=0 / rc_lookahead=50 / rc=crf / mbtree=1 / crf=25.0 / qcomp=0.60 / qpmin=0 / qpmax=69 / qpstep=4 / vbv_maxrate=62500 / vbv_bufsize=78125 / crf_max=0.0 / nal_hrd=none / ip_ratio=1.40 / aq=1:1.00
Language : English
Default : Yes
Forced : No
Color primaries : BT.709
Transfer characteristics : BT.709
Matrix coefficients : BT.709

Audio #1
ID : 2
Format : AC-3
Format/Info : Audio Coding 3
Mode extension : CM (complete main)
Format settings, Endianness : Big
Codec ID : A_AC3
Duration : 2h 12mn
Bit rate mode : Constant
Bit rate : 384 Kbps
Channel(s) : 6 channels
Channel positions : Front: L C R, Side: L R, LFE
Sampling rate : 48.0 KHz
Bit depth : 16 bits
Compression mode : Lossy
Stream size : 365 MiB (10%)
Language : French
Default : Yes
Forced : No

Audio #2
ID : 3
Format : AC-3
Format/Info : Audio Coding 3
Mode extension : CM (complete main)
Format settings, Endianness : Big
Codec ID : A_AC3
Duration : 2h 12mn
Bit rate mode : Constant
Bit rate : 384 Kbps
Channel(s) : 6 channels
Channel positions : Front: L C R, Side: L R, LFE
Sampling rate : 48.0 KHz
Bit depth : 16 bits
Compression mode : Lossy
Stream size : 365 MiB (10%)
Language : English
Default : No
Forced : No

Audio #3
ID : 4
Format : AAC
Format/Info : Advanced Audio Codec
Format profile : LC
Codec ID : A_AAC
Duration : 2h 12mn
Channel(s) : 2 channels
Channel positions : Front: L R
Sampling rate : 48.0 KHz
Compression mode : Lossy
Language : French
Default : No
Forced : No

Text #1
ID : 5
Format : UTF-8
Codec ID : S_TEXT/UTF8
Codec ID/Info : UTF-8 Plain Text
Language : French
Default : No
Forced : No

Text #2
ID : 6
Format : UTF-8
Codec ID : S_TEXT/UTF8
Codec ID/Info : UTF-8 Plain Text
Language : French
Default : No
Forced : No