Télécharger Green Room[BLURAY 720p] vostfr

Qualité WEBRIP 720p | VOSTFR

Origine du film : Américain
Réalisateur : Jeremy Saulnier
Acteurs : Anton Yelchin, Imogen Poots, Patrick Stewart
Genre : Thriller, Action
Durée : 1h 36min
Date de sortie : 27 avril 2016
Année de production : 2015
Distribué par : The Jokers / Bac Films
Note presse : 3,7/5
Note spectateurs :

; »>3,2/5 (476)

Au terme d’une tournée désastreuse, le groupe de punk rock The Ain’t Rights accepte au pied levé de donner un dernier concert au fin fond de l’Oregon… pour finalement se retrouver à la merci d’un gang de skinheads particulièrement violents. Alors qu’ils retournent en backstage après leur set, les membres du groupe tombent sur un cadavre encore chaud et deviennent alors la cible du patron du club et de ses sbires, plus que jamais déterminés à éliminer tout témoin gênant…

news-id-142324″ style= »display:inline; »>

Format : x264
Découpé avec : Winrar

Green.Room.2016.VOSTFR.WEBRIP.720p.x264.AC3-POC-TheRealTaTM

(2558 Mo)

[Liens Interchangeables entre hébergeurs: 2x 1000 Mo + 1x 558 Mo]

Uptobox
Partie 1
Partie 2
Partie 3

Uplea
Partie 1
Partie 2
Partie 3

1fichier
Partie 1
Partie 2
Partie 3

Uploaded
Partie 1
Partie 2
Partie 3

Rapidgator
Partie 1
Partie 2
Partie 3

TurboBit
Partie 1
Partie 2
Partie 3

[Liens PREMIUM]

Uptobox
Télécharger

Uplea
Télécharger

1fichier
Télécharger

Uploaded
Télécharger

Rapidgator
Télécharger

TurboBit
Télécharger

NFO :

 Afficher / Masquer le texte 12a9a7e98f94ec94aa068009e1631ce0″ class= »text_spoiler » style= »display:none; »>
General
Format : Matroska
Format version : Version 2
File size : 2.50 GiB
Duration : 1h 35mn
Overall bit rate : 3 766 Kbps
Encoded date : UTC 2016-07-01 20:15:05
Writing application : mkvmerge v4.4.0 ('Die Wiederkehr') built on Oct 31 2010 21:52:48
Writing library : libebml v1.0.0 + libmatroska v1.0.0

Video
ID : 1
Format : AVC
Format/Info : Advanced Video Codec
Format profile : [email protected]
Format settings, CABAC : Yes
Format settings, ReFrames : 4 frames
Muxing mode : Header stripping
Codec ID : V_MPEG4/ISO/AVC
Duration : 1h 35mn
Bit rate : 3 317 Kbps
Width : 1 280 pixels
Height : 528 pixels
Display aspect ratio : 2.40:1
Frame rate mode : Constant
Frame rate : 23.976 fps
Color space : YUV
Chroma subsampling : 4:2:0
Bit depth : 8 bits
Scan type : Progressive
Bits/(Pixel*Frame) : 0.205
Stream size : 2.15 GiB (86%)
Writing library : x264 core 142 r2431 ac76440
Encoding settings : cabac=1 / ref=3 / deblock=1:0:0 / analyse=0x3:0x113 / me=hex / subme=7 / psy=1 / psy_rd=1.00:0.00 / mixed_ref=1 / me_range=16 / chroma_me=1 / trellis=1 / 8x8dct=1 / cqm=0 / deadzone=21,11 / fast_pskip=1 / chroma_qp_offset=-2 / threads=12 / lookahead_threads=2 / sliced_threads=0 / nr=0 / decimate=1 / interlaced=0 / bluray_compat=0 / constrained_intra=0 / bframes=3 / b_pyramid=2 / b_adapt=1 / b_bias=0 / direct=1 / weightb=1 / open_gop=0 / weightp=2 / keyint=250 / keyint_min=23 / scenecut=40 / intra_refresh=0 / rc_lookahead=40 / rc=2pass / mbtree=1 / bitrate=3317 / ratetol=1.0 / qcomp=0.60 / qpmin=0 / qpmax=69 / qpstep=4 / cplxblur=20.0 / qblur=0.5 / ip_ratio=1.40 / aq=1:1.00
Default : Yes
Forced : No

Audio
ID : 2
Format : AC-3
Format/Info : Audio Coding 3
Mode extension : CM (complete main)
Format settings, Endianness : Big
Muxing mode : Header stripping
Codec ID : A_AC3
Duration : 1h 35mn
Bit rate mode : Constant
Bit rate : 448 Kbps
Channel(s) : 2 channels
Channel positions : Front: L R
Sampling rate : 48.0 KHz
Bit depth : 16 bits
Compression mode : Lossy
Stream size : 304 MiB (12%)
Default : Yes
Forced : No