Telecharger Eye in the Sky[BLURAY 720p]

Qualité BLURAY 720p | FRENCH (VFQ)

Origine du film : Britannique
Réalisateur : Gavin Hood
Acteurs : Helen Mirren, Aaron Paul, Alan Rickman
Genre : Thriller
Date de sortie : 9 septembre 2016
Année de production : 2015
Distribué par : UGC Distribution
Note spectateurs :

; »>3,6/5 (19560)

Le colonel Katherine Powell (Helen Mirren), officier du service d’espionnage, est placé aux commandes d’une opération top-secrète impliquant plusieurs nations. Un groupe de terroristes réfugié à Nairobi doit être capturé ; les services secrets découvrent que le groupe prépare une attaque suicide. Le risque est imminent, il faut agir très vite pour stopper les terroristes coûte que coûte. Dans une base du Nevada, Steve Watts (Aaron Paul), pilote de drones, est prêt à intervenir pour éliminer la menace. Une petite fille entre dans la zone de tir… Entre dommages collatéraux et pressions politiques, sauront-ils prendre la bonne décision ?

news-id-142121″ style= »display:inline; »>

Format : x264
Découpé avec : Winrar
Sous-titres : Forcé pour les passages en langue étrangère.

Eye.in.the.Sky.2015.FRENCH.720p.BluRay.x264-DRONES

(3600 Mo)

[Liens Interchangeables entre hébergeurs: 3x 1000 Mo + 1x 600 Mo]

Uptobox
Télécharger

Uplea
Upload en panne

1fichier
Télécharger

Uploaded
Télécharger

Rapidgator
Télécharger

TurboBit
Télécharger

[ 1 Lien Premium ]

Uptobox
Télécharger

Uplea
Upload en panne

1fichier
Télécharger

Uploaded
Télécharger

TurboBit
Télécharger

NFO :

Afficher / Masquer le texte f16024a7a79a55b366b1962ad41f05b4″ class= »text_spoiler » style= »display:none; »>
General
Unique ID : 235161865288247382756052018636037169071 (0xB0EA871ECBC50BCA377ACDC09FC21FAF)
Complete name : Eye.in.the.Sky.2015.FRENCH.720p.BluRay.x264-DRONES.mkv
Format : Matroska
Format version : Version 4 / Version 2
File size : 3.61 GiB
Duration : 1h 42mn
Overall bit rate : 5 025 Kbps
Encoded date : UTC 2016-07-02 13:35:44
Writing application : mkvmerge v9.2.0 ('Photograph') 64bit
Writing library : libebml v1.3.3 + libmatroska v1.4.4

Video
ID : 1
Format : AVC
Format/Info : Advanced Video Codec
Format profile : [email protected]
Format settings, CABAC : Yes
Format settings, ReFrames : 5 frames
Codec ID : V_MPEG4/ISO/AVC
Duration : 1h 42mn
Bit rate : 4 579 Kbps
Width : 1 280 pixels
Height : 536 pixels
Display aspect ratio : 2.40:1
Frame rate mode : Constant
Frame rate : 23.976 fps
Color space : YUV
Chroma subsampling : 4:2:0
Bit depth : 8 bits
Scan type : Progressive
Bits/(Pixel*Frame) : 0.278
Stream size : 3.21 GiB (89%)
Writing library : x264 core 148 r2692 64f4e24
Encoding settings : cabac=1 / ref=5 / deblock=1:0:0 / analyse=0x3:0x133 / me=umh / subme=7 / psy=1 / psy_rd=1.00:0.00 / mixed_ref=1 / me_range=16 / chroma_me=1 / trellis=1 / 8x8dct=1 / cqm=0 / deadzone=21,11 / fast_pskip=0 / chroma_qp_offset=-2 / threads=17 / lookahead_threads=2 / sliced_threads=0 / nr=0 / decimate=1 / interlaced=0 / bluray_compat=0 / constrained_intra=0 / bframes=3 / b_pyramid=2 / b_adapt=1 / b_bias=0 / direct=1 / weightb=1 / open_gop=0 / weightp=2 / keyint=250 / keyint_min=23 / scenecut=40 / intra_refresh=0 / rc_lookahead=40 / rc=2pass / mbtree=1 / bitrate=4579 / ratetol=1.0 / qcomp=0.60 / qpmin=0 / qpmax=69 / qpstep=4 / cplxblur=20.0 / qblur=0.5 / ip_ratio=1.40 / aq=1:1.00
Language : English
Default : Yes
Forced : No

Audio
ID : 2
Format : AC-3
Format/Info : Audio Coding 3
Mode extension : CM (complete main)
Format settings, Endianness : Big
Codec ID : A_AC3
Duration : 1h 42mn
Bit rate mode : Constant
Bit rate : 448 Kbps
Channel(s) : 6 channels
Channel positions : Front: L C R, Side: L R, LFE
Sampling rate : 48.0 KHz
Bit depth : 16 bits
Compression mode : Lossy
Delay relative to video : 41s 500ms
Stream size : 329 MiB (9%)
Language : French
Default : Yes
Forced : No

Menu
00:00:00.000 : en:00:00:00.000
00:05:23.823 : en:00:05:23.823
00:10:50.149 : en:00:10:50.149
00:15:12.787 : en:00:15:12.787
00:19:07.355 : en:00:19:07.355
00:25:23.230 : en:00:25:23.230
00:30:22.320 : en:00:30:22.320
00:36:55.630 : en:00:36:55.630
00:41:49.590 : en:00:41:49.590
00:46:48.556 : en:00:46:48.556
00:50:25.147 : en:00:50:25.147
00:55:24.279 : en:00:55:24.279
00:59:34.905 : en:00:59:34.905
01:03:25.010 : en:01:03:25.010
01:10:24.262 : en:01:10:24.262
01:16:51.148 : en:01:16:51.148
01:21:32.304 : en:01:21:32.304
01:26:15.003 : en:01:26:15.003
01:30:03.398 : en:01:30:03.398
01:33:42.033 : en:01:33:42.033