Telecharger Belgica[BLURAY 720p]

Qualité BLURAY 720p | FRENCH

Origine du film : Belge, Français
Réalisateur : Felix Van Groeningen
Acteurs : Tom Vermeir, Stef Aerts, Hélène De Vos
Genre : Comédie dramatique
Durée : 2h 07min
Date de sortie : 2 mars 2016
Année de production : 2016
Distribué par : Pyramide Distribution
Note presse : 3,3/5
Note spectateurs :

; »>3,8/5 (414)

Jo et Frank sont frères, et comme souvent dans les familles, ces deux-là sont très différents. Jo, célibataire et passionné de musique, vient d’ouvrir son propre bar à Gand, le Belgica. Frank, père de famille à la vie bien rangée et sans surprise, propose à Jo de le rejoindre pour l’aider à faire tourner son bar. Sous l’impulsion de ce duo de choc, le Belgica devient en quelques semaines the place to be…

news-id-142913″ style= »display:inline; »>

Format : x264

Belgica.2016.FRENCH.720p.BluRay.x264-ANONA

(4629 Mo)

[Liens Interchangeables entre hébergeurs: 4x 1000 Mo + 1x 629 Mo]

Uptobox
Télécharger

Uplea
Télécharger

1fichier
Télécharger

Uploaded
Télécharger

Rapidgator
Télécharger

TurboBit
Télécharger

1 Lien Premium – 4.4 Go

Uptobox Premium
Télécharger

Uplea Premium
Télécharger

1fichier Premium
Télécharger

Uploaded Premium
Télécharger

TurboBit Premium
Télécharger

NFO :

Afficher / Masquer le texte 1e4c16d5d6a4f618df4ed1af86622ce6″ class= »text_spoiler » style= »display:none; »>
General
Unique ID : 186260537622870896182558130408909167465 (0x8C2079850EDE9AEAA95E149FA077DB69)
Complete name : Belgica.2016.FRENCH.720p.BluRay.x264-ANONA.mkv
Format : Matroska
Format version : Version 4 / Version 2
File size : 4.52 GiB
Duration : 2h 7mn
Overall bit rate : 5 090 Kbps
Encoded date : UTC 2016-07-08 09:23:58
Writing application : mkvmerge v9.2.0 ('Photograph') 64bit
Writing library : libebml v1.3.3 + libmatroska v1.4.4
Attachment : Yes

Video
ID : 1
Format : AVC
Format/Info : Advanced Video Codec
Format profile : [email protected]
Format settings, CABAC : Yes
Format settings, ReFrames : 5 frames
Codec ID : V_MPEG4/ISO/AVC
Duration : 2h 7mn
Bit rate : 4 642 Kbps
Width : 1 280 pixels
Height : 536 pixels
Display aspect ratio : 2.40:1
Frame rate mode : Constant
Frame rate : 23.976 fps
Color space : YUV
Chroma subsampling : 4:2:0
Bit depth : 8 bits
Scan type : Progressive
Bits/(Pixel*Frame) : 0.282
Stream size : 4.03 GiB (89%)
Writing library : x264 core 148 r2692 64f4e24
Encoding settings : cabac=1 / ref=5 / deblock=1:0:0 / analyse=0x3:0x133 / me=umh / subme=7 / psy=1 / psy_rd=1.00:0.00 / mixed_ref=1 / me_range=16 / chroma_me=1 / trellis=1 / 8x8dct=1 / cqm=0 / deadzone=21,11 / fast_pskip=0 / chroma_qp_offset=-2 / threads=12 / lookahead_threads=2 / sliced_threads=0 / nr=0 / decimate=1 / interlaced=0 / bluray_compat=0 / constrained_intra=0 / bframes=3 / b_pyramid=2 / b_adapt=2 / b_bias=0 / direct=3 / weightb=1 / open_gop=0 / weightp=2 / keyint=250 / keyint_min=23 / scenecut=40 / intra_refresh=0 / rc_lookahead=50 / rc=2pass / mbtree=1 / bitrate=4642 / ratetol=1.0 / qcomp=0.60 / qpmin=0 / qpmax=69 / qpstep=4 / cplxblur=20.0 / qblur=0.5 / ip_ratio=1.40 / aq=1:1.00
Language : Dutch
Default : Yes
Forced : No

Audio
ID : 2
Format : AC-3
Format/Info : Audio Coding 3
Mode extension : CM (complete main)
Format settings, Endianness : Big
Codec ID : A_AC3
Duration : 2h 7mn
Bit rate mode : Constant
Bit rate : 448 Kbps
Channel(s) : 6 channels
Channel positions : Front: L C R, Side: L R, LFE
Sampling rate : 48.0 KHz
Bit depth : 16 bits
Compression mode : Lossy
Delay relative to video : 10s 550ms
Stream size : 407 MiB (9%)
Language : French
Default : Yes
Forced : No

Menu
00:00:00.000 : en:00:00:00.000
00:08:44.941 : en:00:08:44.941
00:23:17.187 : en:00:23:17.187
00:38:28.932 : en:00:38:28.932
00:51:37.970 : en:00:51:37.970
01:09:43.429 : en:01:09:43.429
01:32:13.611 : en:01:32:13.611
01:47:28.442 : en:01:47:28.442
02:01:19.689 : en:02:01:19.689