Télécharger Batman v Superman : L’Aube de la Justice[WEB-DL 1080p] VOSTFR

Qualité WEB-DL 1080p | VOSTFR | Version Longue (+30min)

Origine du film : Américain
Réalisateur : Zack Snyder
Acteurs : Ben Affleck, Henry Cavill, Jesse Eisenberg
Genre : Action, Fantastique
Durée :

3h 02min
Date de sortie : 23 mars 2016
Année de production : 2016
Titre Original : Batman v Superman: Dawn Of Justice
Distribué par : Warner Bros. France
Note presse : 2,6/5
Note spectateurs :

; »>3,8/5 (10547)

Craignant que Superman n’abuse de sa toute-puissance, le Chevalier noir décide de l’affronter : le monde a-t-il davantage besoin d’un super-héros aux pouvoirs sans limite ou d’un justicier à la force redoutable mais d’origine humaine ? Pendant ce temps-là, une terrible menace se profile à l’horizon…

news-id-142099″ style= »display:inline; »>

Format : x264
Découpé avec : Winrar

Batman.v.Superman.Dawn.of.Justice.2016.Ultimate.Edition.VOSTFR.VOSTEN.1080p.WEB-DL.DD5.1.H264-RARBG-ADDiC7ED

(6368 Mo)

[Liens Interchangeables entre hébergeurs: 6x 1000 Mo + 1x 368 Mo]

Uptobox
Télécharger

Uplea
Télécharger

1fichier
Télécharger

Uploaded
Télécharger

Rapidgator
Télécharger

TurboBit
Télécharger

[Liens PREMIUM]

Uptobox
Télécharger

Uplea
Télécharger

1fichier
Télécharger

Uploaded
Partie 1
Partie 2

Rapidgator
Partie 1
Partie 2

TurboBit
Télécharger

NFO :

 Afficher / Masquer le texte 4ec29f60b4bfe344c9e63015478f5f99″ class= »text_spoiler » style= »display:none; »>
General
Format : Matroska
Format version : Version 4 / Version 2
File size : 6.22 GiB
Duration : 3h 2mn
Overall bit rate : 4 878 Kbps
Movie name : RARBG.COM - Batman.v.Superman.Dawn.of.Justice.2016.Ultimate.Edition.1080p.WEB-DL.DD5.1.H264-RARBG
Encoded date : UTC 2016-07-02 03:23:08
Writing application : mkvmerge v8.9.0 ('Father Daughter') 64bit
Writing library : libebml v1.3.3 + libmatroska v1.4.4
DURATION : 02:53:23.625000000
NUMBER_OF_FRAMES : 1584
NUMBER_OF_BYTES : 55100
_STATISTICS_WRITING_APP : mkvmerge v8.9.0 ('Father Daughter') 64bit
_STATISTICS_WRITING_DATE_UTC : 2016-07-02 03:23:08
_STATISTICS_TAGS : BPS DURATION NUMBER_OF_FRAMES NUMBER_OF_BYTES
Attachment : Yes / Yes / Yes / Yes

Video
ID : 1
Format : AVC
Format/Info : Advanced Video Codec
Format profile : [email protected]
Format settings, CABAC : Yes
Format settings, ReFrames : 5 frames
Codec ID : V_MPEG4/ISO/AVC
Duration : 3h 2mn
Bit rate : 4 397 Kbps
Width : 1 916 pixels
Height : 796 pixels
Display aspect ratio : 2.40:1
Frame rate mode : Constant
Frame rate : 23.976 fps
Color space : YUV
Chroma subsampling : 4:2:0
Bit depth : 8 bits
Scan type : Progressive
Bits/(Pixel*Frame) : 0.120
Stream size : 5.61 GiB (90%)
Title : Batman.v.Superman.Dawn.of.Justice.2016.Ultimate.Edition.1080p.WEB-DL.DD5.1.H264-RARBG
Language : English
Default : Yes
Forced : No
Color primaries : BT.709
Transfer characteristics : BT.709
Matrix coefficients : BT.709

Audio
ID : 2
Format : AC-3
Format/Info : Audio Coding 3
Mode extension : CM (complete main)
Format settings, Endianness : Big
Codec ID : A_AC3
Duration : 3h 2mn
Bit rate mode : Constant
Bit rate : 384 Kbps
Channel(s) : 6 channels
Channel positions : Front: L C R, Side: L R, LFE
Sampling rate : 48.0 KHz
Bit depth : 16 bits
Compression mode : Lossy
Stream size : 501 MiB (8%)
Title : Batman.v.Superman.Dawn.of.Justice.2016.Ultimate.Edition.1080p.WEB-DL.DD5.1.H264-RARBG
Language : English
Default : Yes
Forced : No

Text #1
ID : 3
Format : UTF-8
Codec ID : S_TEXT/UTF8
Codec ID/Info : UTF-8 Plain Text
Language : English
Default : No
Forced : No

Text #2
ID : 4
Format : UTF-8
Codec ID : S_TEXT/UTF8
Codec ID/Info : UTF-8 Plain Text
Language : French
Default : Yes
Forced : No

Menu
00:00:00.000 : en:1
00:10:08.000 : en:2
00:27:00.000 : en:3
00:37:49.000 : en:4
00:46:54.000 : en:5
01:02:04.000 : en:6
01:14:10.000 : en:7
01:28:07.000 : en:8
01:41:46.000 : en:9
01:53:52.000 : en:10
02:02:58.000 : en:11
02:15:03.000 : en:12
02:27:54.000 : en:13
02:36:51.000 : en:14
02:48:17.000 : en:15
02:54:44.000 : en:16

Qualité WEB-DL 1080p | VOSTFR | Version Longue (+30min)

Origine du film : Américain
Réalisateur : Zack Snyder
Acteurs : Ben Affleck, Henry Cavill, Jesse Eisenberg
Genre : Action, Fantastique
Durée :

3h 02min
Date de sortie : 23 mars 2016
Année de production : 2016
Titre Original : Batman v Superman: Dawn Of Justice
Distribué par : Warner Bros. France
Note presse : 2,6/5
Note spectateurs :

; »>3,8/5 (10547)

Craignant que Superman n’abuse de sa toute-puissance, le Chevalier noir décide de l’affronter : le monde a-t-il davantage besoin d’un super-héros aux pouvoirs sans limite ou d’un justicier à la force redoutable mais d’origine humaine ? Pendant ce temps-là, une terrible menace se profile à l’horizon…

news-id-142099″ style= »display:inline; »>

Format : x264
Découpé avec : Winrar

Batman.v.Superman.Dawn.of.Justice.2016.Ultimate.Edition.VOSTFR.VOSTEN.1080p.WEB-DL.DD5.1.H264-RARBG-ADDiC7ED

(6368 Mo)

[Liens Interchangeables entre hébergeurs: 6x 1000 Mo + 1x 368 Mo]

Uptobox
Télécharger

Uplea
Télécharger

1fichier
Télécharger

Uploaded
Télécharger

Rapidgator
Télécharger

TurboBit
Télécharger

[Liens PREMIUM]

Uptobox
Télécharger

Uplea
Télécharger

1fichier
Télécharger

Uploaded
Partie 1
Partie 2

Rapidgator
Partie 1
Partie 2

TurboBit
Télécharger

NFO :

 Afficher / Masquer le texte 4ec29f60b4bfe344c9e63015478f5f99″ class= »text_spoiler » style= »display:none; »>
General
Format : Matroska
Format version : Version 4 / Version 2
File size : 6.22 GiB
Duration : 3h 2mn
Overall bit rate : 4 878 Kbps
Movie name : RARBG.COM - Batman.v.Superman.Dawn.of.Justice.2016.Ultimate.Edition.1080p.WEB-DL.DD5.1.H264-RARBG
Encoded date : UTC 2016-07-02 03:23:08
Writing application : mkvmerge v8.9.0 ('Father Daughter') 64bit
Writing library : libebml v1.3.3 + libmatroska v1.4.4
DURATION : 02:53:23.625000000
NUMBER_OF_FRAMES : 1584
NUMBER_OF_BYTES : 55100
_STATISTICS_WRITING_APP : mkvmerge v8.9.0 ('Father Daughter') 64bit
_STATISTICS_WRITING_DATE_UTC : 2016-07-02 03:23:08
_STATISTICS_TAGS : BPS DURATION NUMBER_OF_FRAMES NUMBER_OF_BYTES
Attachment : Yes / Yes / Yes / Yes

Video
ID : 1
Format : AVC
Format/Info : Advanced Video Codec
Format profile : [email protected]
Format settings, CABAC : Yes
Format settings, ReFrames : 5 frames
Codec ID : V_MPEG4/ISO/AVC
Duration : 3h 2mn
Bit rate : 4 397 Kbps
Width : 1 916 pixels
Height : 796 pixels
Display aspect ratio : 2.40:1
Frame rate mode : Constant
Frame rate : 23.976 fps
Color space : YUV
Chroma subsampling : 4:2:0
Bit depth : 8 bits
Scan type : Progressive
Bits/(Pixel*Frame) : 0.120
Stream size : 5.61 GiB (90%)
Title : Batman.v.Superman.Dawn.of.Justice.2016.Ultimate.Edition.1080p.WEB-DL.DD5.1.H264-RARBG
Language : English
Default : Yes
Forced : No
Color primaries : BT.709
Transfer characteristics : BT.709
Matrix coefficients : BT.709

Audio
ID : 2
Format : AC-3
Format/Info : Audio Coding 3
Mode extension : CM (complete main)
Format settings, Endianness : Big
Codec ID : A_AC3
Duration : 3h 2mn
Bit rate mode : Constant
Bit rate : 384 Kbps
Channel(s) : 6 channels
Channel positions : Front: L C R, Side: L R, LFE
Sampling rate : 48.0 KHz
Bit depth : 16 bits
Compression mode : Lossy
Stream size : 501 MiB (8%)
Title : Batman.v.Superman.Dawn.of.Justice.2016.Ultimate.Edition.1080p.WEB-DL.DD5.1.H264-RARBG
Language : English
Default : Yes
Forced : No

Text #1
ID : 3
Format : UTF-8
Codec ID : S_TEXT/UTF8
Codec ID/Info : UTF-8 Plain Text
Language : English
Default : No
Forced : No

Text #2
ID : 4
Format : UTF-8
Codec ID : S_TEXT/UTF8
Codec ID/Info : UTF-8 Plain Text
Language : French
Default : Yes
Forced : No

Menu
00:00:00.000 : en:1
00:10:08.000 : en:2
00:27:00.000 : en:3
00:37:49.000 : en:4
00:46:54.000 : en:5
01:02:04.000 : en:6
01:14:10.000 : en:7
01:28:07.000 : en:8
01:41:46.000 : en:9
01:53:52.000 : en:10
02:02:58.000 : en:11
02:15:03.000 : en:12
02:27:54.000 : en:13
02:36:51.000 : en:14
02:48:17.000 : en:15
02:54:44.000 : en:16

2006
-
Votes : 0