Télécharger Avril et le monde truqué [BLURAY 1080p] French complet

Qualité WEB-DL 1080p | FRENCH

Origine du film : Français, Belge, Canadien
Réalisateur : Franck Ekinci
Acteurs : Marion Cotillard, Philippe Katerine, Jean Rochefort
Genre : Animation, Aventure
Durée : 1h 45min
Date de sortie : 4 novembre 2015
Année de production : 2015
Distribué par : StudioCanal
Note presse : 3,8/5
Note spectateurs :

; »>4,1/5 (415)

1941. Le monde est radicalement différent de celui décrit par l’Histoire habituelle. Napoléon V règne sur la France, où, comme partout sur le globe, depuis 70 ans, les savants disparaissent mystérieusement, privant l’humanité d’inventions capitales. Ignorant notamment radio, télévision, électricité, aviation, moteur à explosion, cet univers est enlisé dans une technologie dépassée, comme endormi dans un savoir du XIXème siècle, gouverné par le charbon et la vapeur. C’est dans ce monde étrange qu’une jeune fille, Avril, part à la recherche de ses parents, scientifiques disparus, en compagnie de Darwin, son chat parlant, et de Julius, jeune gredin des rues. Ce trio devra affronter les dangers et les mystères de ce Monde Truqué. Qui enlève les savants depuis des décennies ? Dans quel sinistre but ?

news-id-125890″ style= »display:inline; »>

Format : x264

Avril.Et.Le.Monde.Truque.2015.FRENCH.1080p.WEB.H264-SiGeRiS

(3969 Mo)

[Liens Interchangeables entre hébergeurs: 3x 1000 Mo + 1x 969 Mo]

Uptobox
Télécharger

Uplea
Télécharger

1fichier
Télécharger

Uploaded
Télécharger

Rapidgator
Télécharger

TurboBit
Télécharger

[ 1 Lien Premium ]

Uptobox
Télécharger

Uplea
Télécharger

1fichier
Télécharger

Uploaded
Télécharger

TurboBit
Télécharger

NFO :

 Afficher / Masquer le texte 2c15be9b960d8668f003f8af527ad022″ class= »text_spoiler » style= »display:none; »>
General
Unique ID : 252430634902086651147013615442184887044 (0xBDE85F327851B92780FF919E702FDB04)
Complete name : C:UsersAdministratorVideosAvril.Et.Le.Monde.Truque.2015.FRENCH.1080p.WEB.H264-SiGeRiSAvril.Et.Le.Monde.Truque.2015.FRENCH.1080p.WEB.H264-SiGeRiS.mkv
Format : Matroska
Format version : Version 4 / Version 2
File size : 3.88 GiB
Duration : 1h 45mn
Overall bit rate : 5 249 Kbps
Encoded date : UTC 2016-03-24 10:01:22
Writing application : mkvmerge v8.9.0 ('Father Daughter') 64bit
Writing library : libebml v1.3.3 + libmatroska v1.4.4

Video
ID : 1
Format : AVC
Format/Info : Advanced Video Codec
Format profile : [email protected]
Format settings, CABAC : Yes
Format settings, ReFrames : 4 frames
Codec ID : V_MPEG4/ISO/AVC
Duration : 1h 45mn
Bit rate : 4 863 Kbps
Width : 1 908 pixels
Height : 1 028 pixels
Display aspect ratio : 1.85:1
Frame rate mode : Constant
Frame rate : 24.000 fps
Color space : YUV
Chroma subsampling : 4:2:0
Bit depth : 8 bits
Scan type : Progressive
Bits/(Pixel*Frame) : 0.103
Stream size : 3.59 GiB (93%)
Default : Yes
Forced : No
Color range : Limited
Color primaries : BT.709
Transfer characteristics : BT.709
Matrix coefficients : BT.709


Audio
ID : 2
Format : AC-3
Format/Info : Audio Coding 3
Mode extension : CM (complete main)
Format settings, Endianness : Big
Codec ID : A_AC3
Duration : 1h 45mn
Bit rate mode : Constant
Bit rate : 384 Kbps
Channel(s) : 6 channels
Channel positions : Front: L C R, Side: L R, LFE
Sampling rate : 48.0 KHz
Frame rate : 31.250 fps (1536 spf)
Compression mode : Lossy
Stream size : 290 MiB (7%)
Language : French
Default : Yes
Forced : No

3751
-
0%
Votes : 1