Telecharger Aux yeux de tous[BLURAY 720p]

(TRUEFRENCH = Vraie voix française)

Qualité BLURAY 720p | MULTiLANGUES (Avec TRUEFRENCH) | son DTS

Origine du film : Américain
Réalisateur : Billy Ray
Acteurs : Julia Roberts, Chiwetel Ejiofor, Nicole Kidman
Genre : Policier, Thriller, Drame
Durée : 1h 52min
Date de sortie : 23 mars 2016
Année de production : 2015
Titre Original : Secret In Their Eyes
Distribué par : Universal Pictures International France
Note presse : 2,5/5
Note spectateurs :

; »>3,2/5 (294)

Une enquêtrice du FBI découvre avec horreur que l’une de ses filles a été brutalement assassinée. Les conséquences sur son équipe seront nombreuses.

news-id-142451″ style= »display:inline; »>

Format : x264

Secret.in.Their.Eyes.2015.MULTi.720p.BluRay.DTS.x264-KLI

(6728 Mo)

[Liens Interchangeables entre hébergeurs: 6x 1000 Mo + 1x 728 Mo]

Uptobox
Télécharger

Uplea
Télécharger

1fichier
Télécharger

Uploaded
Télécharger

Rapidgator
Télécharger

TurboBit
Télécharger

1 Lien Premium – 6.6 Go

Uptobox Premium
Télécharger

Uplea Premium
Télécharger

1fichier Premium
Télécharger

Uploaded Premium
Télécharger

TurboBit Premium
Télécharger

NFO :

Afficher / Masquer le texte ae11b612d987eef4cb5e0625c7f1290c » class= »text_spoiler » style= »display:none; »>
Secret.in.Their.Eyes.2015.MULTi.720p.BluRay.DTS.x264-KLI

x264 [info]: frame I:1442 Avg QP:11,76 size:160534
x264 [info]: frame P:33568 Avg QP:14,46 size: 60616
x264 [info]: frame B:125046 Avg QP:16,94 size: 22808
x264 [info]: consecutive B-frames: 2,4% 2,6% 8,8% 10,0% 14,5% 49,2% 7,5% 2,3% 2,7%


Format : Matroska
Format version : Version 4 / Version 2
File size : 6.57 GiB
Duration : 1h 51mn
Overall bit rate : 8 455 Kbps
Movie name : Secret in Their Eyes 2015 MULTi 720p BluRay DTS Encode By [email protected]
Encoded date : UTC 2016-07-03 12:37:41
Writing application : mkvmerge v9.2.0 ('Photograph') 64bit
Writing library : libebml v1.3.3 + libmatroska v1.4.4

Video
ID : 1
Format : AVC
Format/Info : Advanced Video Codec
Format profile : [email protected]
Format settings, CABAC : Yes
Format settings, ReFrames : 12 frames
Codec ID : V_MPEG4/ISO/AVC
Duration : 1h 51mn
Bit rate : 6 135 Kbps
Width : 1 280 pixels
Height : 534 pixels
Display aspect ratio : 2.40:1
Frame rate mode : Constant
Frame rate : 23.976 (24000/1001) fps
Color space : YUV
Chroma subsampling : 4:2:0
Bit depth : 8 bits
Scan type : Progressive
Bits/(Pixel*Frame) : 0.374
Stream size : 4.67 GiB (71%)
Title : Secret in Their Eyes 2015 MULTi 720p BluRay DTS Encode By [email protected]
Writing library : x264 core 148 r2694 3b70645
Encoding settings : cabac=1 / ref=12 / deblock=1:-3:-3 / analyse=0x3:0x133 / me=umh / subme=11 / psy=1 / psy_rd=1,00:0,20 / mixed_ref=1 / me_range=64 / chroma_me=1 / trellis=2 / 8x8dct=1 / cqm=0 / deadzone=21,11 / fast_pskip=0 / chroma_qp_offset=-3 / threads=16 / lookahead_threads=2 / sliced_threads=0 / nr=0 / decimate=1 / interlaced=0 / bluray_compat=0 / constrained_intra=0 / bframes=8 / b_pyramid=2 / b_adapt=2 / b_bias=0 / direct=3 / weightb=1 / open_gop=0 / weightp=2 / keyint=240 / keyint_min=24 / scenecut=40 / intra_refresh=0 / rc_lookahead=240 / rc=2pass / mbtree=1 / bitrate=6135 / ratetol=1,0 / qcomp=0,60 / qpmin=0 / qpmax=69 / qpstep=4 / cplxblur=20,0 / qblur=0,5 / vbv_maxrate=50000 / vbv_bufsize=55000 / nal_hrd=none / filler=0 / ip_ratio=1,40 / aq=2:1,00
Language : English
Default : Yes
Forced : No
Color range : Limited
Color primaries : BT.709
Transfer characteristics : BT.709
Matrix coefficients : BT.709

Audio #1
ID : 2
Format : DTS
Format/Info : Digital Theater Systems
Mode : 16
Format settings, Endianness : Big
Codec ID : A_DTS
Duration : 1h 51mn
Bit rate mode : Constant
Bit rate : 1 509 Kbps
Channel(s) : 6 channels
Channel positions : Front: L C R, Side: L R, LFE
Sampling rate : 48.0 KHz
Frame rate : 93.750 fps (512 spf)
Bit depth : 24 bits
Compression mode : Lossy
Stream size : 1.17 GiB (18%)
Title : DTS VO 5.1
Language : English
Default : No
Forced : No

Audio #2
ID : 3
Format : DTS
Format/Info : Digital Theater Systems
Mode : 16
Format settings, Endianness : Big
Codec ID : A_DTS
Duration : 1h 51mn
Bit rate mode : Constant
Bit rate : 768 Kbps
Channel(s) : 6 channels
Channel positions : Front: L C R, Side: L R, LFE
Sampling rate : 48.0 KHz
Frame rate : 93.750 fps (512 spf)
Bit depth : 24 bits
Compression mode : Lossy
Stream size : 611 MiB (9%)
Title : DTS VFF 5.1
Language : French
Default : Yes
Forced : No

Text #1
ID : 4
Format : UTF-8
Codec ID : S_TEXT/UTF8
Codec ID/Info : UTF-8 Plain Text
Title : SRT Full
Language : French
Default : No
Forced : No

Text #2
ID : 5
Format : UTF-8
Codec ID : S_TEXT/UTF8
Codec ID/Info : UTF-8 Plain Text
Title : SRT Forced
Language : French
Default : Yes
Forced : No

Text #3
ID : 6
Format : PGS
Muxing mode : zlib
Codec ID : S_HDMV/PGS
Codec ID/Info : Picture based subtitle format used on BDs/HD-DVDs
Title : PGS SDH Full
Language : English
Default : No
Forced : No

Text #4
ID : 7
Format : PGS
Muxing mode : zlib
Codec ID : S_HDMV/PGS
Codec ID/Info : Picture based subtitle format used on BDs/HD-DVDs
Title : PGS Full
Language : French
Default : No
Forced : No

Text #5
ID : 8
Format : PGS
Muxing mode : zlib
Codec ID : S_HDMV/PGS
Codec ID/Info : Picture based subtitle format used on BDs/HD-DVDs
Title : PGs Forced
Language : French
Default : No
Forced : No

Menu
00:00:00.000 : :Chapter 1
00:04:53.585 : :Chapter 2
00:10:33.299 : :Chapter 3
00:18:01.830 : :Chapter 4
00:22:22.466 : :Chapter 5
00:26:28.795 : :Chapter 6
00:34:11.924 : :Chapter 7
00:42:20.704 : :Chapter 8
00:46:12.853 : :Chapter 9
00:51:40.555 : :Chapter 10
00:55:57.562 : :Chapter 11
00:59:59.012 : :Chapter 12
01:05:28.966 : :Chapter 13
01:12:15.998 : :Chapter 14
01:17:10.709 : :Chapter 15
01:21:13.201 : :Chapter 16
01:25:04.182 : :Chapter 17
01:30:57.201 : :Chapter 18
01:37:00.314 : :Chapter 19
01:45:18.562 : :Chapter 20